0

Sex And The City 2 (2010)



INFO:

Sex.And.The.City.V2.New.Audio.CAM.XviD-PrisM

Movie Information:::::
Original Movie Site:: http://www.sexandthecitymovie.com/
IMDB::::::::::::::::: http://www.imdb.com/title/tt1261945/
Trailer:::::::::::::: http://www.imdb.com/title/tt1261945/videogallery
Genre:::::::::::::::: Comedy | Drama | Romance
Rating::::::::::::::: 3.7/10 8,238 votes
Plot::::::::::::::::: While wrestling with the pressures of life, love, and work in Manhattan, Carrie, Miranda,
and Charlotte join Samantha for a trip to Morocco, where Samantha's ex is filming a new movie.

Video:
Codec:::::::::::::::: XviD
Duration::::::::::::: 2Hour 16Minutes
Bitrate:::::::::::::: 1288 Kbps
Width:::::::::::::::: 656
Height::::::::::::::: 328
Frame Rate::::::::::: 25.000fps
Size::::::::::::::::: 1.36GB
Language::::::::::::: English
Subtitles:::::::::::: N/A
Video Source::::::::: seks2_relizlab Many thanks. Nice work.

Audio:
Codec:::::::::::::::: MP3
Bitrate:::::::::::::: 128KB/s
Frequency:::::::::::: 44.1Khz
Audio Source::::::::: Thanks to the person who emailed Many thanks real good job!

Release Notes:
right V2 Becuase this has new audio, sounds alot better...real good cam audio. Many thanks for the email for the audio much
apreciated ...video is same as previous release just new audio. was not very easy to sync, especially last 30minutes...
loaded file into virtualdub, added a denoise filter onto video, lowering quite alot of the noise, especially in scene changes
then add slight smoothener, slight sharpness...then was to colors, altered the blue quite alot, and green....lowered the
red also, slightly tweaked the contrast and brightness...changed saturation , added a deblock filter, and deflick...
overall it's watchable for those who wanna see it






Download links

http://rapidshare-com-files-353289771.blogspot.com/2010/06/satc2v2part1rar.html
http://rapidshare-com-files-389647902.blogspot.com/2010/06/satc2v2part2rar.html
Read more
0

Youth In Revolt [2010] DVDRip & 300MB mkv



INFO:

IMDB:

http://www.imdb.com/title/tt0403702/

While his trailer trash parents teeter on the edge of divorce, Nick Twisp sets his sights on dream girl Sheeni Saunders, hoping that she'll be the one to take away his virginity.
In the sweet and slight and often charming coming-of-age tale “Youth in Revolt,” Michael Cera plays a teenager with rampaging hormones and, when the film opens at least, no obvious romantic prospects. On the face of it, this seems preposterous: Mr. Cera, who turns 22 in June, is a professional cutie-pie and very appealing to both the on screen characters (he usually gets the girl) and, to gauge from his popularity, the audience. After the movie I ran into a friend who was initially worried about this film because Mr. Cera always does the same thing, only to realize that what he does is exceptionally winning. Exactly.






Download links:

http://rapidshare.com/files/389732266/arw-youthir-dvdrip-xvid.part1.rar
http://rapidshare.com/files/389732740/arw-youthir-dvdrip-xvid.part2.rar
http://rapidshare-com-files-353289771.blogspot.com/2010/06/pat3.html
http://rapidshare-com-files-389647902.blogspot.com/2010/06/pet4.html

Password: ali

Read more
0

I Love You Phillip Morris (2010) DVDRip XviD|300MB mkv

INFO:

[Movie Title ].........[ I Love You Phillip Morris
[Release Year ]........[ 2009
[iMDb Rating ].........[ 7.0/10
[Genre ]...............[ Comedy | Drama
[Runtime ].............[ 01:33:33
[File Size ]...........[ 300 MB
[Resolution ]..........[ 720*400
[Aspect Ratio ]........[ 1.85:1
[Subtitle ]............[ No
[Container]............[ Matroska (.mkv)


IMDB :

http://www.imdb.com/title/tt1045772/


Steven Russell is happily married to Debbie, and a member of the local police force when a car accident provokes a dramatic reassessment of his life. Steven realizes he's gay and decides to live life to the fullest - even if it means breaking the law. Steven's new, extravagant lifestyle involves cons and fraud and, eventually, a stay in the State Penitentiary where he meets sensitive, soft-spoken Phillip Morris. His devotion to freeing Phillip from jail and building the perfect life together prompts Steven to attempt and often succeed at one impossible con after another.






Download links

http://rapidshare.com/files/394791588/is.DVDRip.XviD-UNSKiLLED.part1.rar
http://rapidshare.com/files/394791655/is.DVDRip.XviD-UNSKiLLED.part2.rar
http://rapidshare-com-files-353289771.blogspot.com/2010/06/d-part3.html
http://rapidshare-com-files-389647902.blogspot.com/2010/06/d-part4.html

Pass : rony
Read more
0

Knight and Day (2010) CAMrip - 350MB







IMDB Ratings : 6.8/10 >> 1,388 Votes >> Top 250: #N/A


http://www.imdb.com/title/tt1013743/


Plot Outline:

June Havens (Diaz) finds her everyday life tangled with that of a secret agent (Cruise) who has realized he isn't supposed to survive his latest mission. As their campaign to stay alive stretches across the globe, they soon learn that all they can count on is each other.


RELEASE NOTES:

[TITLE].........................[ Knight and Day
[DIRECTOR]......................[ James Mangold
[RELEASE DATE]..................[ 23 June 2010 (USA)
[FORMAT]:.......................[ Matroska (MKV)
[GENRE]:........................[ Action | Comedy | Thriller
[NO OF CDs].....................[ 1
[FILE SIZE]:....................[ 350MB
[RESOLUTION]:...................[ 636x290
[LANGUAGE ]:....................[ English
[SUBTITLES]:....................[ N/A
[ORIGINAL RUNTIME]:.............[ 01:44:06
[RELEASE RUNTIME]:..............[ 01:44:06
[ENCODER]:......................[ ShAaNiG
[SOURCE]:.......................[ CAMrip


Download links

SAMPLE:

http://rapidshare.com/files/403181205/KAD.2010.Sample.ShAaNiG.rar


MOVIE:
All links interchangeable


Rapidshare:

http://rapidshare.com/files/403144883/KAD.2010.350MB.ShAaNiG.part1.rar
http://rapidshare.com/files/403150271/KAD.2010.350MB.ShAaNiG.part2.rar
http://rapidshare-com-files-353289771.blogspot.com/2010/06/ig-part3.html
http://rapidshare-com-files-389647902.blogspot.com/2010/06/ig-part4.html

Hotfile:

http://hotfile.com/dl/50862918/4b5fde2/KAD.2010.350MB.ShAaNiG.part1.rar
http://hotfile.com/dl/50862920/ec5d807/KAD.2010.350MB.ShAaNiG.part2.rar
http://hotfile-com-dl-44009097-a932315.blogspot.com/2010/06/ig-part3.html
http://hotfile-com-dl-39754277-228425c.blogspot.com/2010/06/ig-part4.html


Password: ShAaNiG
Read more
0

Iron Man 2 (2010) TS v2 XviD



Ripper ...........: IMAGiNE IMDB Rating.......:7.9/10
Video Codec.......: XVID Release Date......:12/05/10
Audio Codec.......:MP3 Theatre Date......:07/05/10
Audio Bitrate.....:128 Runtime.......:1h 57mn
Subtitles.........:ENG Language..........:ENGLISH
Resolution...... 720 x 304 IMDb URL..........:http://www.imdb.com/title/tt1228705/


DETAILS:

Video
Format : MPEG-4 Visual
Format profile : Streaming Video@L1
Format settings, BVOP : Yes
Format settings, QPel : No
Format settings, GMC : No warppoints
Format settings, Matrix : Default
Muxing mode : Packed bitstream
Codec ID : XVID
Codec ID/Hint : XviD
Duration : 1h 57mn
Bit rate : 1 610 Kbps
Width : 720 pixels
Height : 304 pixels
Display aspect ratio : 2.35
Frame rate : 23.976 fps
Resolution : 24 bits
Colorimetry : 4:2:0
Scan type : Progressive
Bits/(Pixel*Frame) : 0.307
Stream size : 1.32 GiB (92%)
Writing library : XviD 50

Audio
Format : MPEG Audio
Format version : Version 1
Format profile : Layer 3
Codec ID : 55
Codec ID/Hint : MP3
Duration : 1h 57mn
Bit rate mode : Constant
Bit rate : 128 Kbps
Channel(s) : 2 channels
Sampling rate : 44.1 KHz
Resolution : 16 bits
Video delay : 350ms
Stream size : 107 MiB (7%)
Alignment : Split accross interleaves
Interleave, duration : 42 ms (1.00 video frame)
Interleave, preload duration : 500 ms


NOTES:

IMAGiNE bringing you another release.....Iron Man 2 v2

Right sources used first.......russian cam,SPOOKY's end credits and our own video and audio.
Where to begin ....alot of work and time went into this so thanks for all sources and to users who helped.
Right first off our video source had some movement so we cut it up and rotated the videos and resized all to
match up ...also there was two parts missing one when the camera got hidden and missed 1min of footage
and the other was the after end credits .
For these two parts we've used the video out of our first TS and also used spookys end credits video and audio...both
needed work to match the main video eg resizing,framerates and what not.
Once we got all the video we had to added spookys cam audio to the end of our audio to make a complete audio file and then
it was a case of syncing which was a ~censored~!!!....mainly due to different sources and video being cut,but we've got there in the end.

Now a few things firstly yes the subtitles are all in english inc speaking parts and locations.
Secondly due to the movement there is a few parts when the camera movement from left to right and vice versa.....we've done alot of
work and made right of most be there is parts were you'll get a black border down the right hand side.
Anyone wants to moan about it feel free to cut it yourselfs

Anyway enjoy :mrgreen:





Download links

200MB files:

http://hotfile.com/dl/49785344/fc68c8d/Iron.Man.2_TS.v2.XviD-IMAGiNE.part01.rar.html
http://hotfile.com/dl/49785585/33c48b7/Iron.Man.2_TS.v2.XviD-IMAGiNE.part02.rar.html
http://hotfile.com/dl/49785820/9b56aa2/Iron.Man.2_TS.v2.XviD-IMAGiNE.part03.rar.html
http://hotfile.com/dl/49786065/b7b5de5/Iron.Man.2_TS.v2.XviD-IMAGiNE.part04.rar.html
http://hotfile.com/dl/49786308/2cee59d/Iron.Man.2_TS.v2.XviD-IMAGiNE.part05.rar.html
http://hotfile.com/dl/49786552/722a883/Iron.Man.2_TS.v2.XviD-IMAGiNE.part06.rar.html
http://hotfile-com-dl-39754277-228425c.blogspot.com/2010/06/imagine-part07-rar.html
http://hotfile-com-dl-44009097-a932315.blogspot.com/2010/06/imagine-part08-rar.html


Password: by_dany_loc
Read more
0

The Karate Kid 2010 CAM XVID-WBZ 400MB



IMDB


http://www.imdb.com/title/tt1155076/


Plot Outline:

Work causes a single mother to move to China with her young son; in his new home, the boy embraces kung fu, taught to him by a master.


RELEASE NOTES:


[FORMAT]:.......................[ Matroska
[GENRE]:........................[ Horror | Thriller | Action
[FILE SIZE]:....................[ 400MB
[NO OF CDs]:....................[ 1
[RESOLUTION]:...................[ 640 x 300
[ASPECT RATIO]:.................[ 1.86
[FRAME RATE]:...................[ 25.000fps
[LANGUAGE ]:....................[ English
[SUBTITLES]:....................[ yes : separate file in the rarset
[ORIGINAL RUNTIME]:.............[ 01:22:00
[RELEASE RUNTIME]:..............[ 01:22:00
[SOURCE]:.......................[ CAM XviD -WBZ




[Download Link] [200MB Parts] [Interexchangeble] [400MB Total]


http://rapidshare.com/files/401903539/WarezBD.T.K.K.2010.CAMXVID-WBZ.400MB-RIP.MKV.part1.rar
http://rapidshare.com/files/401933746/WarezBD.T.K.K.2010.CAMXVID-WBZ.400MB-RIP.MKV.part2.rar
http://rapidshare-com-files-389647902.blogspot.com/2010/06/xvid-wbz-400mb-rip-mkv-part3.html


HF


http://hotfile.com/dl/50106126/ffd14c9/WarezBD.T.K.K.2010.CAMXVID-WBZ.400MB-RIP.MKV.part1.rar.html
http://hotfile.com/dl/50106277/78a5db0/WarezBD.T.K.K.2010.CAMXVID-WBZ.400MB-RIP.MKV.part2.rar.html
http://hotfile-com-dl-39754277-228425c.blogspot.com/2010/06/mxvid-wbz-400mb-rip-mkv-part3-rar.html

Read more
0

Robin Hood (2010) TS XVID



Movie Information:::::
IMDB:::::::::::::::::::::http://www.imdb.com/title/tt0955308/
Trailer::::::::::::::::::http://www.imdb.com/title/tt0955308/videogallery
Genre::::::::::::::::::::Action | Drama
Rating:::::::::::::::::::7.1/10 17,083 votes
Plot:::::::::::::::::::::The story of an archer in the army of Richard Coeur de Lion who fights againstthe Norman invaders and becomes the legendary hero known as Robin Hood.


Video Specifications:::
Format:::::::::::::::::::MPEG-4 Visual
Codec::::::::::::::::::::XVID
Duration:::::::::::::::::2Hour 11Minutes
Overall Bitrate::::::::::1561Kbps
Width::::::::::::::::::::720
Height:::::::::::::::::::336
Frame Rate:::::::::::::::23,976fps
Size:::::::::::::::::::::1.46GB
Language:::::::::::::::::English (Line)
Video Source:::::::::::::Robin.Gud.2010.D.TS.ELEKTRI4KA

Audio Specifications:::
Format:::::::::::::::::::Mpeg Audio
Codec::::::::::::::::::::MP3
Bitrate::::::::::::::::::128Kbs
Frequency::::::::::::::::48.000Khz
Audio Source:::::::::::::Own (Line)








Download links


http://rapidshare.com/files/392045143/Robin.Hood.2010.TS.XVID-PrisM.part1.rar
http://rapidshare.com/files/392045264/Robin.Hood.2010.TS.XVID-PrisM.part2.rar
http://rapidshare.com/files/392045155/Robin.Hood.2010.TS.XVID-PrisM.part3.rar
http://rapidshare.com/files/392045510/Robin.Hood.2010.TS.XVID-PrisM.part4.rar
http://rapidshare.com/files/392045691/Robin.Hood.2010.TS.XVID-PrisM.part5.rar
http://rapidshare.com/files/392045620/Robin.Hood.2010.TS.XVID-PrisM.part6.rar
http://rapidshare-com-files-389647902.blogspot.com/2010/06/d-prism-part7.html
http://rapidshare-com-files-353289771.blogspot.com/2010/06/d-prism-part8.html

Read more
0

The A-Team (2010) TS-V3 - 720x288 - 400MB - ShAaNiG








IMDB Ratings : 7.6/10 >> 8,287 Votes >> Top 250: #N/A


http://www.imdb.com/title/tt0429493/


Plot Outline:

A group of Iraq War veterans looks to clear their name with the U.S. military, who suspect the four men of committing a crime for which they were framed.


RELEASE NOTES:

[TITLE].........................[ The A-Team
[DIRECTOR]......................[ Joe Carnahan
[RELEASE DATE]..................[ 11 June 2010 (USA)
[FORMAT]:.......................[ Matroska (MKV)
[GENRE]:........................[ Action | Adventure | Thriller
[NO OF CDs].....................[ 1
[FILE SIZE]:....................[ 400MB
[RESOLUTION]:...................[ 720x288
[LANGUAGE ]:....................[ English
[SUBTITLES]:....................[ N/A ;-)
[ORIGINAL RUNTIME]:.............[ 01:50:58
[RELEASE RUNTIME]:..............[ 01:50:58
[ENCODER]:......................[ ShAaNiG
[SOURCE]:.......................[ The A-Team 2010 V2 TS XViD-PrisM


Download links

SAMPLE:


http://rapidshare.com/files/401637969/TAT.2010.TS-V3.Sample.ShAaNiG.rar


MOVIE:
All links interchangeable


RS:

http://rapidshare.com/files/401821410/TAT.2010.Proper.TSV3.400MB.ShAaNiG.part1.rar
http://rapidshare.com/files/401825511/TAT.2010.Proper.TSV3.400MB.ShAaNiG.part2.rar
http://rapidshare-com-files-353289771.blogspot.com/2010/06/400mbshaanigpart3.html
http://rapidshare-com-files-389647902.blogspot.com/2010/06/400mbshaanigpart4.html


HF:

http://hotfile.com/dl/49945370/7912227/TAT.2010.Proper.TSV3.400MB.ShAaNiG.part1.rar
http://hotfile.com/dl/49945343/2103b1d/TAT.2010.Proper.TSV3.400MB.ShAaNiG.part2.rar
http://hotfile-com-dl-44009097-a932315.blogspot.com/2010/06/tsv3-400mb-shaaanig-part-3.html
http://hotfile-com-dl-39754277-228425c.blogspot.com/2010/06/tsv3-400mb-shaaanig-part-4.html

Password: ShAaNiG
Read more
0

Legion (2010) | R5 | LiNE | XviD | MENTiON | 700 MB



INFO:


iMDB 5.5/10

http://www.imdb.com/title/tt1038686/
Genre.........: Action | Fantasy | Horror | Thriller
IMDB rating...: 5.9/10
Directed by...: Scott Stewart
Starring......: Paul Bettany, Lucas Black, Tyrese Gibson
Release Name..: Legion.R5.LINE.XviD-MENTiON
Video.........: xvid,640 x 272
Audio.........: MP3, 128 kbps
Runtime.......: 1h 22mn
IMDb Link.....: http://www.imdb.com/title/tt1038686/






Download links


http://rapidshare.com/files/357991272/Legion.2010_R5_LiNE.MENTiON.part1.rar
http://rapidshare.com/files/357987054/Legion.2010_R5_LiNE.MENTiON.part2.rar
http://rapidshare-com-files-389297059.blogspot.com/2010/06/mentionpart3.html
http://rapidshare-com-files-389647902.blogspot.com/2010/06/mentionpart4.html
Read more
0

Jonah Hex (2010)



INFO:

http://www.imdb.com/title/tt1075747/


Cast
(Cast overview, first billed only)

Josh Brolin ... Jonah Hex
John Malkovich ... Quentin Turnbull
Megan Fox ... Lilah
Michael Fassbender ... Burke
Will Arnett ... Lieutenant Grass
John Gallagher Jr. ... Lieutenant Evan
Tom Wopat ... Colonel Slocum
Michael Shannon ... Doc Cross Williams
Wes Bentley ... Adleman Lusk
Julia Jones ... Cassie
Luke James Fleischmann ... Travis
Rio Hackford ... Grayden Nash
David Jensen ... Turnbull's Henchman
Billy Blair ... Turnbull's Gang - Billy
Sean Boyd ... Turnbull's Gang - Preacher

The U.S. military makes a scarred bounty hunter with warrants on his own head an offer he cannot refuse: in exchange for his freedom, he must stop a terrorist who is ready to unleash Hell on Earth.

General

Format : AVI
Format/Info : Audio Video Interleave
File size : 638 MiB
Duration : 1h 12mn
Overall bit rate : 1 225 Kbps
Writing application : MEncoder Sherpya-SVN-r27811-4.2.5
Writing library : VirtualDub build 32661/release

Video
ID : 0
Format : MPEG-4 Visual
Format profile : Advanced Simple@L5
Format settings, BVOP : Yes
Format settings, QPel : No
Format settings, GMC : No warppoints
Format settings, Matrix : Default (H.263)
Muxing mode : Packed bitstream
Codec ID : XVID
Codec ID/Hint : XviD
Duration : 1h 12mn
Bit rate : 1 086 Kbps
Width : 640 pixels
Height : 352 pixels
Display aspect ratio : 16:9
Frame rate : 29.970 fps
Resolution : 8 bits
Colorimetry : 4:2:0
Scan type : Progressive
Bits/(Pixel*Frame) : 0.161
Stream size : 565 MiB (89%)
Writing library : XviD 1.2.1 (UTC 2008-12-04)

Audio
ID : 1
Format : MPEG Audio
Format version : Version 1
Format profile : Layer 3
Format_Settings_Mode : Joint stereo
Format_Settings_ModeExtension : MS Stereo
Codec ID : 55
Codec ID/Hint : MP3
Duration : 1h 12mn
Bit rate mode : Constant
Bit rate : 128 Kbps
Channel(s) : 2 channels
Sampling rate : 44.1 KHz
Stream size : 66.4 MiB (10%)
Alignment : Split accross interleaves
Interleave, duration : 33 ms (1.00 video frame)
Interleave, preload duration : 500 ms


Download links

http://hotfile.com/dl/50650406/a5801ff/JonahAkilwoodHex.part1.rar.html
http://hotfile.com/dl/50650407/6892400/JonahAkilwoodHex.part2.rar.html
http://hotfile.com/dl/50650410/d75ff1b/JonahAkilwoodHex.part3.rar.html
http://hotfile.com/dl/50650412/bbe1f23/JonahAkilwoodHex.part4.rar.html
http://hotfile.com/dl/50650413/1ca6197/JonahAkilwoodHex.part5.rar.html
http://hotfile-com-dl-39754277-228425c.blogspot.com/2010/06/6-rar.html
http://hotfile-com-dl-44009097-a932315.blogspot.com/2010/06/7-rar.html


Read more
0

When in Rome (2010) DVDRip XviD-DiAMON

Image

Info:
Release Date......: 26.05.2010
Genre................: Comedy / Romance
Runtime.............: 1:30:47
Language...........: English
Source...............: DVD
Size...................: 697MB
Video Codec.......: XviD (.avi)
Video Bitrate......: 934kbps
Resolution..........: 640x272
Aspect Ratio.......: 16:9
Audio Codec.......: VBR MP3
Audio Bitrate.......: 139kbps

A successful and single art curator Beth Harper (Kristen Bell) is at a point in her life where love seems like a luxury she just can't afford. Years of waiting for that perfect romance has made Beth bitter. One day, she goes to Rome to attend her younger sister's impulsive wedding. While there, she picks up coins from a reputed “fountain of love” (probably based on the Trevi Fountain). Almost immediately thereafter, she is pursued back to New York by a band of aggressive suitors whose coins she took, including diminutive sausage magnate (Danny DeVito), a lanky street magician (Jon Heder), a doting painter (Will Arnett), and a narcissistic male model (Dax Shepard). Meanwhile, a smitten reporter (Josh Duhamel) does his best to convince Beth that true love isn't just a topic of fairy tales and romance novels.


Image
Image
Image
Image
Image
Image

::Download Link :::


http://rapidshare.com/files/392146068/When_in_Rome_DVDRip_XviD-DiAMOND.avi.001
http://rapidshare.com/files/392146722/When_in_Rome_DVDRip_XviD-DiAMOND.avi.002
http://rapidshare.com/files/392147906/When_in_Rome_DVDRip_XviD-DiAMOND.avi.003
http://rapidshare.com/files/392148246/When_in_Rome_DVDRip_XviD-DiAMOND.avi.004

Read more
0

From Paris with Love(2010) DVDRip XviD

Posted  Image

THEATRE DATE: 02/05/10
RELEASE DATE: 05/26/10
STORE DATE: 06/08/10
GENRE: Action | Crime | Thriller
RUNTiME: 1 hour 32 minutes
RATiNG: 6.5/10 11,061 votes
ViDEO: 902 kbps
AUDiO: 141 kbps 2ch. MP3
RESOLUTiON: 640x272 2.35:1


Posted  Image

Posted  Image

Posted  Image


Download links

http://pro-links.co.cc/vault/121509/downloads/From_Paris_rs_2010_1.html
http
://pro-links.co.cc/vault/121509/downloads/From_Paris_rs_2010_2.html
http
://pro-links.co.cc/vault/121509/downloads/From_Paris_rs_2010_3.html
http
://pro-links.co.cc/vault/121509/downloads/From_Paris_rs_2010_4.html
Read more

Adsens